#TITLE:bag;
#SUBTITLE:(reeeeeeally slow edit by annon);
#ARTIST:RevenG;
#TITLETRANSLIT:;
#SUBTITLETRANSLIT:;
#ARTISTTRANSLIT:;
#CREDIT:;
#BANNER:bag.png;
#BACKGROUND:bag-bg.png;
#LYRICSPATH:;
#CDTITLE:;
#MUSIC:bag.mp3;
#OFFSET:-11.127;
#SAMPLESTART:59.120;
#SAMPLELENGTH:12.000;
#SELECTABLE:YES;
#BPMS:0.000=8.125;
#STOPS:;
#BGCHANGES:;
// cache tags:
#FIRSTBEAT:0.000;
#LASTBEAT:11.250;
#SONGFILENAME:Songs/Music V.I.P ^_^/bag (reeeeeeally slow edit by annon)/bag.sm;
#HASMUSIC:1;
#HASBANNER:1;
#MUSICLENGTH:99.770;
// end cache tags

//---------------dance-single - ----------------
#NOTES:
     dance-single:
     :
     Hard:
     10:
     0.776,0.555,0.311,0.421,1.000,469.000,31.000,42.000,0.000,0.000:  // measure 1
1000
0100
0010
0100
1000
0010
0001
0010
0100
0001
0010
0100
0010
0100
1000
0100
0010
0001
0100
0010
0100
0001
1000
0100
0202
0000
0000
0303
1000
0100
0010
0001
0100
1000
0100
0010
1000
0100
0010
0100
1000
0010
0001
0010
0100
0002
1000
1000
1003
0010
0100
0010
1000
0001
0010
0100
0001
0010
0001
0100
0010
0001
1000
0100
0001
0010
1000
0010
0100
0001
1000
0010
0001
0100
0010
0001
1000
0100
0010
1000
0001
0010
0100
0010
0001
1000
0010
0001
0010
0100
0001
0010
0100
2002
0000
3003
0011
0011
0011
0011
1000
0100
0010
0100
1000
0001
0010
0100
1000
0100
0010
0010
0000
0001
0010
0000
0010
0100
0000
0100
1010
1010
1010
1010
0001
0100
0010
0100
0001
0010
1000
0001
0100
1000
0010
0001
0100
0010
0001
1000
0100
0020
0030
0010
0100
1000
0010
0200
0300
0100
0001
0010
0100
0001
0010
0100
0001
0010
0100
0001
0010
0100
1000
0010
0100
0020
0030
0000
1000
0100
0010
0100
1000
0010
0100
0010
1000
0001
0010
0100
0010
1000
0010
0001
0100
0010
1000
0100
0010
0001
0100
0010
,  // measure 2
2002
0000
0000
3003
1000
0100
0010
0100
1000
0010
0100
0001
0010
1000
0010
0100
1000
0010
0001
0100
0010
2002
0000
3003
1000
0100
0010
0002
0000
1003
0020
0000
0130
0002
0000
1003
0100
0010
0100
1000
0010
0100
0010
1000
0001
0010
0100
0010
0001
1000
0010
0200
0000
0301
0020
0000
0130
2000
0000
3001
0100
1000
0100
0001
0010
1000
0010
0100
1000
0010
0010
0010
1000
0100
0010
0002
0000
1003
0020
0000
0130
0002
0000
0013
0100
0010
0001
1000
0010
0001
0200
0000
0310
2000
0000
3001
0010
0100
0010
0002
0000
1003
0020
0000
0130
0002
0000
1003
0100
0010
0100
1000
0010
0100
0010
1000
0001
0010
0000
0000
0001
0100
0010
2000
3000
1000
0001
0100
0010
2000
3000
1000
0001
0100
0010
2000
3000
1000
0001
0000
0100
0000
0010
1000
0001
0100
0010
2000
3000
1000
0001
0100
0010
2000
3000
1000
0001
0100
0010
1000
0100
0010
0001
0100
0010
1000
0100
0010
2002
0000
3003
0001
0000
0001
0220
0330
0001
0010
0100
0010
0001
0010
1000
0010
0100
0010
0001
0100
0010
0101
0110
1010
,  // measure 3
2002
3003
0000
1100
0110
0011
2002
0000
3003
1000
0000
1000
0010
0100
0010
1000
0001
0010
1000
0100
0001
0010
0010
0010
1000
0100
0010
0100
0000
1000
0100
0010
0001
0100
0000
0000
1000
0000
0001
0100
0000
0100
0001
0010
0100
0010
0010
0010
1000
0100
0010
0100
0000
1000
0010
0100
0001
0010
0000
0100
0000
0100
0000
0010
0000
0010
0000
0010
0100
0010
0000
0000
0101
0101
0101
0101
0100
0010
0100
1000
0010
0001
0100
1000
0001
0010
1000
0100
0010
1000
0001
0100
1000
0010
0010
0000
1100
1100
1100
1100
0100
0010
0100
1000
0010
0001
0010
0100
0010
0001
1000
0010
0100
0001
0010
1000
0010
0200
0300
0100
0001
0010
0100
0010
1000
0010
0001
0100
0010
1000
1000
0010
0000
0001
0010
0000
1000
0010
0000
0001
0010
0000
1000
0010
0000
0001
0010
1000
0100
1000
0010
0001
0100
2002
0000
0000
3003
0000
0000
0000
0000
0000
0000
0000
0000
0000
0000
0000
0000
0000
0000
0000
0000
0000
0000
0000
0000
0000
0000
0000
0000
0000
0000
0000
0000
0000
0000
0000
0000
0000
0000
0000
;
